<?xml version="1.0" standalone="no"?>
<!DOCTYPE svg PUBLIC "-//W3C//DTD SVG 1.1//EN" "http://www.w3.org/Graphics/SVG/1.1/DTD/svg11.dtd" >
<svg xmlns="http://www.w3.org/2000/svg">
<metadata>Generated by IcoMoon</metadata>
<defs>
<font id="icomoon" horiz-adv-x="1024">
<font-face units-per-em="1024" ascent="960" descent="-64" />
<missing-glyph horiz-adv-x="1024" />
<glyph unicode="&#x20;" horiz-adv-x="512" d="" />
<glyph unicode="&#xe900;" d="M320 192v622.357l-25.835 17.301c-109.845-44.096-187.499-151.381-187.499-276.992v-213.333c0-164.949 133.717-298.667 298.667-298.667h213.333c100.736 0 189.504 50.091 243.563 126.528v22.805h-542.229z" />
<glyph unicode="&#xe901;" d="M618.667 853.333h-213.333c-39.36 0-76.821-7.808-111.232-21.632-71.104-69.035-123.435-181.632-123.435-277.035 0-144.448 19.968-229.013 79.189-311.616 4.608-6.421 7.616-13.931 8.021-21.803 0.917-17.813-2.752-50.453-34.859-79.829-3.456-3.157-1.259-8.939 3.413-9.131 20.096-0.875 60.651 0.299 102.336 18.709 11.883 5.248 25.408 4.331 36.885-1.771 70.677-37.525 153.451-42.56 231.68-42.56 99.755 0 199.232 22.187 264.896 62.208 34.581 48.747 55.104 108.16 55.104 172.459v213.333c0 164.949-133.717 298.667-298.667 298.667z" />
<glyph unicode="&#xe902;" d="M784 384c-44.096 0-80 35.904-80 80s35.904 80 80 80 80-35.904 80-80-35.904-80-80-80zM784 512c-26.453 0-48-21.547-48-48s21.547-48 48-48 48 21.547 48 48-21.547 48-48 48z" />
<glyph unicode="&#xe903;" d="M672 384h-21.333c-5.888 0-10.667 4.779-10.667 10.667v181.333h32v-192z" />
<glyph unicode="&#xe904;" d="M576 538.667v-11.072c-13.419 10.155-29.931 16.405-48 16.405-44.096 0-80-35.904-80-80s35.904-80 80-80c18.069 0 34.581 6.251 48 16.405v-5.739c0-5.888 4.779-10.667 10.667-10.667h21.333v154.667h-32zM528 416c-26.453 0-48 21.547-48 48s21.547 48 48 48 48-21.547 48-48-21.547-48-48-48z" />
<glyph unicode="&#xe905;" d="M453.333 576h-170.667v-32h113.515l-118.848-138.667h0.555c-3.477-4.501-5.888-9.877-5.888-16v-5.333h160c5.888 0 10.667 4.779 10.667 10.667v21.333h-113.515l118.848 138.667h-0.555c3.477 4.501 5.888 9.877 5.888 16v5.333z" />
<glyph unicode="&#xe906;" d="M320 192v622.357l-25.835 17.301c-109.845-44.096-187.499-151.381-187.499-276.992v-213.333c0-164.949 133.717-298.667 298.667-298.667h213.333c100.736 0 189.504 50.091 243.563 126.528v22.805h-542.229z" />
<glyph unicode="&#xe907;" d="M618.667 853.333h-213.333c-39.36 0-76.821-7.808-111.232-21.632-71.104-69.035-123.435-181.632-123.435-277.035 0-144.448 19.968-229.013 79.189-311.616 4.608-6.421 7.616-13.931 8.021-21.803 0.917-17.813-2.752-50.453-34.859-79.829-3.456-3.157-1.259-8.939 3.413-9.131 20.096-0.875 60.651 0.299 102.336 18.709 11.883 5.248 25.408 4.331 36.885-1.771 70.677-37.525 153.451-42.56 231.68-42.56 99.755 0 199.232 22.187 264.896 62.208 34.581 48.747 55.104 108.16 55.104 172.459v213.333c0 164.949-133.717 298.667-298.667 298.667z" />
<glyph unicode="&#xe908;" d="M784 384c-44.096 0-80 35.904-80 80s35.904 80 80 80 80-35.904 80-80-35.904-80-80-80zM784 512c-26.453 0-48-21.547-48-48s21.547-48 48-48 48 21.547 48 48-21.547 48-48 48z" />
<glyph unicode="&#xe909;" d="M672 384h-21.333c-5.888 0-10.667 4.779-10.667 10.667v181.333h32v-192z" />
<glyph unicode="&#xe90a;" d="M576 538.667v-11.072c-13.419 10.155-29.931 16.405-48 16.405-44.096 0-80-35.904-80-80s35.904-80 80-80c18.069 0 34.581 6.251 48 16.405v-5.739c0-5.888 4.779-10.667 10.667-10.667h21.333v154.667h-32zM528 416c-26.453 0-48 21.547-48 48s21.547 48 48 48 48-21.547 48-48-21.547-48-48-48z" />
<glyph unicode="&#xe90b;" d="M453.333 576h-170.667v-32h113.515l-118.848-138.667h0.555c-3.477-4.501-5.888-9.877-5.888-16v-5.333h160c5.888 0 10.667 4.779 10.667 10.667v21.333h-113.515l118.848 138.667h-0.555c3.477 4.501 5.888 9.877 5.888 16v5.333z" />
<glyph unicode="&#xe90c;" d="M320 192v622.357l-25.835 17.301c-109.845-44.096-187.499-151.381-187.499-276.992v-213.333c0-164.949 133.717-298.667 298.667-298.667h213.333c100.736 0 189.504 50.091 243.563 126.528v22.805h-542.229z" />
<glyph unicode="&#xe90d;" d="M618.667 853.333h-213.333c-39.36 0-76.821-7.808-111.232-21.632-71.104-69.035-123.435-181.632-123.435-277.035 0-144.448 19.968-229.013 79.189-311.616 4.608-6.421 7.616-13.931 8.021-21.803 0.917-17.813-2.752-50.453-34.859-79.829-3.456-3.157-1.259-8.939 3.413-9.131 20.096-0.875 60.651 0.299 102.336 18.709 11.883 5.248 25.408 4.331 36.885-1.771 70.677-37.525 153.451-42.56 231.68-42.56 99.755 0 199.232 22.187 264.896 62.208 34.581 48.747 55.104 108.16 55.104 172.459v213.333c0 164.949-133.717 298.667-298.667 298.667z" />
<glyph unicode="&#xe90e;" d="M784 384c-44.096 0-80 35.904-80 80s35.904 80 80 80 80-35.904 80-80-35.904-80-80-80zM784 512c-26.453 0-48-21.547-48-48s21.547-48 48-48 48 21.547 48 48-21.547 48-48 48z" />
<glyph unicode="&#xe90f;" d="M672 384h-21.333c-5.888 0-10.667 4.779-10.667 10.667v181.333h32v-192z" />
<glyph unicode="&#xe910;" d="M576 538.667v-11.072c-13.419 10.155-29.931 16.405-48 16.405-44.096 0-80-35.904-80-80s35.904-80 80-80c18.069 0 34.581 6.251 48 16.405v-5.739c0-5.888 4.779-10.667 10.667-10.667h21.333v154.667h-32zM528 416c-26.453 0-48 21.547-48 48s21.547 48 48 48 48-21.547 48-48-21.547-48-48-48z" />
<glyph unicode="&#xe911;" d="M453.333 576h-170.667v-32h113.515l-118.848-138.667h0.555c-3.477-4.501-5.888-9.877-5.888-16v-5.333h160c5.888 0 10.667 4.779 10.667 10.667v21.333h-113.515l118.848 138.667h-0.555c3.477 4.501 5.888 9.877 5.888 16v5.333z" />
<glyph unicode="&#xe912;" d="M320 192v622.357l-25.835 17.301c-109.845-44.096-187.499-151.381-187.499-276.992v-213.333c0-164.949 133.717-298.667 298.667-298.667h213.333c100.736 0 189.504 50.091 243.563 126.528v22.805h-542.229z" />
<glyph unicode="&#xe913;" d="M618.667 853.333h-213.333c-39.36 0-76.821-7.808-111.232-21.632-71.104-69.035-123.435-181.632-123.435-277.035 0-144.448 19.968-229.013 79.189-311.616 4.608-6.421 7.616-13.931 8.021-21.803 0.917-17.813-2.752-50.453-34.859-79.829-3.456-3.157-1.259-8.939 3.413-9.131 20.096-0.875 60.651 0.299 102.336 18.709 11.883 5.248 25.408 4.331 36.885-1.771 70.677-37.525 153.451-42.56 231.68-42.56 99.755 0 199.232 22.187 264.896 62.208 34.581 48.747 55.104 108.16 55.104 172.459v213.333c0 164.949-133.717 298.667-298.667 298.667z" />
<glyph unicode="&#xe914;" d="M784 384c-44.096 0-80 35.904-80 80s35.904 80 80 80 80-35.904 80-80-35.904-80-80-80zM784 512c-26.453 0-48-21.547-48-48s21.547-48 48-48 48 21.547 48 48-21.547 48-48 48z" />
<glyph unicode="&#xe915;" d="M672 384h-21.333c-5.888 0-10.667 4.779-10.667 10.667v181.333h32v-192z" />
<glyph unicode="&#xe916;" d="M576 538.667v-11.072c-13.419 10.155-29.931 16.405-48 16.405-44.096 0-80-35.904-80-80s35.904-80 80-80c18.069 0 34.581 6.251 48 16.405v-5.739c0-5.888 4.779-10.667 10.667-10.667h21.333v154.667h-32zM528 416c-26.453 0-48 21.547-48 48s21.547 48 48 48 48-21.547 48-48-21.547-48-48-48z" />
<glyph unicode="&#xe917;" d="M453.333 576h-170.667v-32h113.515l-118.848-138.667h0.555c-3.477-4.501-5.888-9.877-5.888-16v-5.333h160c5.888 0 10.667 4.779 10.667 10.667v21.333h-113.515l118.848 138.667h-0.555c3.477 4.501 5.888 9.877 5.888 16v5.333z" />
<glyph unicode="&#xe918;" d="M320 192v622.357l-25.835 17.301c-109.845-44.096-187.499-151.381-187.499-276.992v-213.333c0-164.949 133.717-298.667 298.667-298.667h213.333c100.736 0 189.504 50.091 243.563 126.528v22.805h-542.229z" />
<glyph unicode="&#xe919;" d="M618.667 853.333h-213.333c-39.36 0-76.821-7.808-111.232-21.632-71.104-69.035-123.435-181.632-123.435-277.035 0-144.448 19.968-229.013 79.189-311.616 4.608-6.421 7.616-13.931 8.021-21.803 0.917-17.813-2.752-50.453-34.859-79.829-3.456-3.157-1.259-8.939 3.413-9.131 20.096-0.875 60.651 0.299 102.336 18.709 11.883 5.248 25.408 4.331 36.885-1.771 70.677-37.525 153.451-42.56 231.68-42.56 99.755 0 199.232 22.187 264.896 62.208 34.581 48.747 55.104 108.16 55.104 172.459v213.333c0 164.949-133.717 298.667-298.667 298.667z" />
<glyph unicode="&#xe91a;" d="M784 384c-44.096 0-80 35.904-80 80s35.904 80 80 80 80-35.904 80-80-35.904-80-80-80zM784 512c-26.453 0-48-21.547-48-48s21.547-48 48-48 48 21.547 48 48-21.547 48-48 48z" />
<glyph unicode="&#xe91b;" d="M672 384h-21.333c-5.888 0-10.667 4.779-10.667 10.667v181.333h32v-192z" />
<glyph unicode="&#xe91c;" d="M576 538.667v-11.072c-13.419 10.155-29.931 16.405-48 16.405-44.096 0-80-35.904-80-80s35.904-80 80-80c18.069 0 34.581 6.251 48 16.405v-5.739c0-5.888 4.779-10.667 10.667-10.667h21.333v154.667h-32zM528 416c-26.453 0-48 21.547-48 48s21.547 48 48 48 48-21.547 48-48-21.547-48-48-48z" />
<glyph unicode="&#xe91d;" d="M453.333 576h-170.667v-32h113.515l-118.848-138.667h0.555c-3.477-4.501-5.888-9.877-5.888-16v-5.333h160c5.888 0 10.667 4.779 10.667 10.667v21.333h-113.515l118.848 138.667h-0.555c3.477 4.501 5.888 9.877 5.888 16v5.333z" />
</font>
</defs>
</svg>
